設為首頁收藏本站

 找回密碼
 註冊
查看: 88|回覆: 0

[外語] 終極武器 The.Perfect.Weapon.2016.1080p.BluRay.x264.DTS-ULSHD [複製鏈接]

Rank: 9Rank: 9Rank: 9

UID
688568
閱讀權限
90
註冊時間
2011-8-16
積分
11396
T點
0
2
EGJ分
0
帖子
5355
發表於 2016-11-8 08:01:29 PM |顯示全部樓層

◎譯  名 終極武器
◎片  名 The Perfect Weapon
◎年  代 2016
◎國  家 美國/瑞典
◎類  別 動作/科幻
◎語  言 英語
◎上映日期 2016-01-25(美國)
◎IMDb評分 3.7/10 from 235 users
◎IMDb鏈接 http://www.imdb.com/title/tt4616250/
◎老鳥家園整理 http://bbs.hd62.com
◎導  演 Titus Paar
◎主  演 薩沙·杰克逊 Sasha Jackson
      史蒂文·席格 Steven Seagal
      約翰尼·梅辛纳 Johnny Messner
      理查德·泰森 Richard Tyson
      弗農·威尔斯 Vernon Wells
      蘭斯·E·尼克尔斯 Lance E. Nichols
◎簡  介
  In the not so distant future, society is controlled by the powerful State[and]a dictator known as the Director. Condor works as a hitman for the State, but a reunion with someone he thought was dead forces him to consider who his enemies really are.
Video
ID : 1
Format : AVC
Format/Info : Advanced Video Codec
Format profile : [email protected]
Format settings, CABAC : Yes
Format settings, ReFrames : 5 frames
Codec ID : V_MPEG4/ISO/AVC
Duration : 1h 23mn
Bit rate : 8 215 Kbps
Width : 1 920 pixels
Height : 800 pixels
Display aspect ratio : 2.40:1
Frame rate mode : Constant
Frame rate : 25.000 fps
Color space : YUV
Chroma subsampling : 4:2:0
Bit depth : 8 bits
Scan type : Progressive
Bits/(Pixel*Frame) : 0.214
Stream size : 4.68 GiB (82%)
Writing library : x264 core 148 r2705 3f5ed56
Encoding settings : cabac=1 / ref=5 / deblock=1:0:0 / analyse=0x3:0x113 / me=umh / subme=8 / psy=1 / psy_rd=1.00:0.00 / mixed_ref=1 / me_range=16 / chroma_me=1 / trellis=1 / 8x8dct=1 / cqm=0 / deadzone=21,11 / fast_pskip=1 / chroma_qp_offset=-2 / threads=18 / lookahead_threads=3 / sliced_threads=0 / nr=0 / decimate=1 / interlaced=0 / bluray_compat=0 / constrained_intra=0 / bframes=3 / b_pyramid=2 / b_adapt=2 / b_bias=0 / direct=3 / weightb=1 / open_gop=0 / weightp=2 / keyint=250 / keyint_min=25 / scenecut=40 / intra_refresh=0 / rc_lookahead=50 / rc=2pass / mbtree=1 / bitrate=8215 / ratetol=1.0 / qcomp=0.60 / qpmin=0 / qpmax=69 / qpstep=4 / cplxblur=20.0 / qblur=0.5 / ip_ratio=1.40 / aq=1:1.00
Language : English
Default : Yes
Forced : No
Audio
ID : 2
Format : DTS
Format/Info : Digital Theater Systems
Mode : 16
Format settings, Endianness : Big
Codec ID : A_DTS
Duration : 1h 23mn
Bit rate mode : Constant
Bit rate : 1 509 Kbps
Channel(s) : 6 channels
Channel positions : Front: L C R, Side: L R, LFE
Sampling rate : 48.0 KHz
Frame rate : 93.750 fps (512 spf)
Bit depth : 24 bits
Compression mode : Lossy
Stream size : 902 MiB (16%)
Language : English
Default : Yes
Forced : No
Menu
00:00:00.000 : en:00:00:00.000
00:06:19.160 : en:00:06:19.160
00:14:25.960 : en:00:14:25.960
00:20:58.320 : en:00:20:58.320
00:26:15.720 : en:00:26:15.720
00:34:07.120 : en:00:34:07.120
00:40:02.800 : en:00:40:02.800
00:45:45.280 : en:00:45:45.280
00:53:52.520 : en:00:53:52.520
01:00:06.200 : en:01:00:06.200
01:09:11.080 : en:01:09:11.080
01:15:48.160 : en:01:15:48.160 (57.35 KB)





下載地址:
http://afile.me/f8d658680bfcfb1d.html
馬上成為17T17P資訊網粉絲!
您需要登錄後才可以回帖 登錄 | 註冊

聯系我們|Archiver|手機版|17T17P.com   

GMT+8, 2016-12-4 02:06 PM , Processed in 0.158254 second(s), 18 queries .

Powered by Discuz! X2

© 2001-2011 Comsenz Inc.

回頂部